The Expend4bles 4 2023 TS 1080p x264 Dual

The Expend4bles 4 2023 TS 1080p x264 Dual
Name: The.Expend4bles.4.2023.TS.1080p.x264.Dual.YG⭐
Type: HD
Language: Spanish
Size: 3.6 GB
Categories: Movies
Download:

==============================================================
The Expend4bles 4 2023 TS 1080p x264 Dual⭐
==============================================================
General Information
==============================================================
General
Format : Matroska
Format version : Version 4
File size : 3.58 GiB
Duration : 1 h 33 min
Overall bit rate mode : Variable
Overall bit rate : 5 511 kb/s

Video
ID : 1
Format : AVC
Format/Info : Advanced Video Codec
Format profile : Main@L4
Format settings : CABAC / 4 Ref Frames
Format settings, CABAC : Yes
Format settings, Reference fra : 4 frames
Codec ID : V_MPEG4/ISO/AVC
Duration : 1 h 33 min
Bit rate mode : Variable
Bit rate : 5 189 kb/s
Maximum bit rate : 16.0 Mb/s
Width : 1 920 pixels
Height : 852 pixels
Display aspect ratio : 2.25:1
Frame rate mode : Constant
Frame rate : 23.976 (24000/1001) FPS
Color space : YUV
Chroma subsampling : 4:2:0
Bit depth : 8 bits
Scan type : Progressive
Bits/(Pixel*Frame) : 0.132
Stream size : 3.37 GiB (94%)
Language : English
Default : Yes
Forced : No
Color range : Limited
Color primaries : BT.709
Transfer characteristics : BT.709
Matrix coefficients : BT.709

Audio #1
ID : 2
Format : AAC LC
Format/Info : Advanced Audio Codec Low Complexity
Codec ID : A_AAC-2
Duration : 1 h 33 min
Bit rate : 161 kb/s
Channel(s) : 2 channels
Channel layout : L R
Sampling rate : 44.1 kHz
Frame rate : 43.066 FPS (1024 SPF)
Compression mode : Lossy
Delay relative to video : -23 ms
Stream size : 108 MiB (3%)
Language : Spanish
Default : Yes
Forced : No

Audio #2
ID : 3
Format : AAC LC
Format/Info : Advanced Audio Codec Low Complexity
Codec ID : A_AAC-2
Duration : 1 h 33 min
Bit rate : 159 kb/s
Channel(s) : 2 channels
Channel layout : L R
Sampling rate : 44.1 kHz
Frame rate : 43.066 FPS (1024 SPF)
Compression mode : Lossy
Delay relative to video : -23 ms
Stream size : 106 MiB (3%)
Language : English
Default : Yes
Forced : No

==============================================================

Post Information
==============================================================
Posted by============: Yerisan Group
Posted on============: 27/09/2023
————————————————————

——————————————————-

——————————————————-

you can follow me…
Spanish YG

[b](-Gatty Dual YG-)

Torrent Downloaded From Gatty Dual YG
For More Exclusive Stuff Visit Us

(-Gatty Dual YG-)


PiRATES_NEVER_DiE!*
*We Just go ON and On and On…FOREVER!*

Read More