Spaceman 2024 1080p NF WEB-DL MULTi DD+5.1

Spaceman 2024 1080p NF WEB-DL MULTi DD+5.1
Name: Spaceman 2024 1080p NF WEB-DL MULTi DD+5.1
Type: HEVC/x265
Language: Hindi
Size: 4 GB
Categories: Movies
Download:

 

==============================================================

 

==============================================================
Spaceman 2024 1080p NF WEB-DL MULTi DD+5.1
==============================================================
IMDB | TMDB | MOVIE TRAILER
==============================================================
Video: HEVC | 1920×1080 24fps | 2,438 kb/s
Audio #1: English | E-AC-3 JOC | Enhanced AC-3 with Joint Object Coding | 768 kb/s | DD+5.1 Atmos | 6 channels
Audio #2: Hindi | E-AC-3 JOC | Enhanced AC-3 with Joint Object Coding | 768 kb/s | DD+5.1 Atmos | 6 channels
Audio #3: Tamil | E-AC-3 | Enhanced AC-3 | 640 kb/s | DD+5.1 | 6 channels
Audio #4: Telugu | E-AC-3 | Enhanced AC-3 | 640 kb/s | DD+5.1 | 6 channels
Subtitle: Arabic | Basque | Catalan | Croatian | Czech | Czech [Forced] | Danish | Dutch | English [Forced] | Finnish | Israel | Israel [Forced] | French | French [Forced] | Galician | German | German [Forced] | Greek | Hebrew | Hindi [Forced] | Hungarian | Hungarian [Forced] | Indonesian | Indonesian [Forced] | Italian | Italian [Forced] | Japanese | Japanese [Forced] | Korean | Malay | Norwegian Bokmal | Polish | Polish [Forced] | Portuguese | Brazilian | Brazilian [Forced] | Romanian | Russian | Spanish | Spanish [Forced] | Spanish | Spanish [Forced] | Swedish | Tamil [Forced] | Telugu [Forced] | Thai | Thai [Forced] | Turkish | Turkish [Forced] | Ukrainian | Ukrainian [Forced] | Vietnamese | Chinese [Simplified] | Chinese [Traditional]
Size: 4.00 GiB | Duration: 1h 48min
==============================================================
Posted by: xCLuMsYx | Date: 06/03/2024
==============================================================

 

 

More Poster’s

 

General
Unique ID : 132885746091994802653898888205597376372 (0x63F8DD1F3FE65D45B4BE3EF700BF7F74)
Complete name : Spaceman.2024.1080p.NF.WEB-DL.MULTi.DD+5.1.Atmos.DV-HDR.H.265-TheBiscuitMan.mkv
Format : Matroska
Format version : Version 4
File size : 4.00 GiB
Duration : 1 h 48 min
Overall bit rate : 5 260 kb/s
Frame rate : 24.000 FPS
Writing application : mkvmerge v82.0 (‘I’m The President’) 64-bit
Writing library : libebml v1.4.5 + libmatroska v1.7.1

Video
ID : 1
Format : HEVC
Format/Info : High Efficiency Video Coding
Format profile : Main 10@L4@Main
HDR format : Dolby Vision, Version 1.0, Profile 8.1, dvhe.08.03, BL+RPU, HDR10 compatible / SMPTE ST 2086, Version HDR10, HDR10 compatible
Codec ID : V_MPEGH/ISO/HEVC
Duration : 1 h 48 min
Bit rate : 2 438 kb/s
Width : 1 920 pixels
Height : 1 080 pixels
Display aspect ratio : 16:9
Frame rate mode : Constant
Frame rate : 24.000 FPS
Color space : YUV
Chroma subsampling : 4:2:0 (Type 2)
Bit depth : 10 bits
Bits/(Pixel*Frame) : 0.049
Stream size : 1.85 GiB (46%)
Default : Yes
Forced : No
Color range : Limited
Color primaries : BT.2020
Transfer characteristics : PQ
Matrix coefficients : BT.2020 non-constant
Mastering display color primaries : Display P3
Mastering display luminance : min: 0.0001 cd/m2, max: 1000 cd/m2
Maximum Content Light Level : 502 cd/m2
Maximum Frame-Average Light Level : 56 cd/m2

Audio #1
ID : 2
Format : E-AC-3 JOC
Format/Info : Enhanced AC-3 with Joint Object Coding
Commercial name : Dolby Digital Plus with Dolby Atmos
Codec ID : A_EAC3
Duration : 1 h 48 min
Bit rate mode : Constant
Bit rate : 768 kb/s
Channel(s) : 6 channels
Channel layout : L R C LFE Ls Rs
Sampling rate : 48.0 kHz
Frame rate : 31.250 FPS (1536 SPF)
Compression mode : Lossy
Stream size : 598 MiB (15%)
Language : English
Service kind : Complete Main
Default : Yes
Forced : No
Complexity index : 16
Number of dynamic objects : 15
Bed channel count : 1 channel
Bed channel configuration : LFE

Audio #2
ID : 3
Format : E-AC-3 JOC
Format/Info : Enhanced AC-3 with Joint Object Coding
Commercial name : Dolby Digital Plus with Dolby Atmos
Codec ID : A_EAC3
Duration : 1 h 48 min
Bit rate mode : Constant
Bit rate : 768 kb/s
Channel(s) : 6 channels
Channel layout : L R C LFE Ls Rs
Sampling rate : 48.0 kHz
Frame rate : 31.250 FPS (1536 SPF)
Compression mode : Lossy
Stream size : 598 MiB (15%)
Language : Hindi
Service kind : Complete Main
Default : No
Forced : No
Complexity index : 16
Number of dynamic objects : 15
Bed channel count : 1 channel
Bed channel configuration : LFE

Audio #3
ID : 4
Format : E-AC-3
Format/Info : Enhanced AC-3
Commercial name : Dolby Digital Plus
Codec ID : A_EAC3
Duration : 1 h 48 min
Bit rate mode : Constant
Bit rate : 640 kb/s
Channel(s) : 6 channels
Channel layout : L R C LFE Ls Rs
Sampling rate : 48.0 kHz
Frame rate : 31.250 FPS (1536 SPF)
Compression mode : Lossy
Stream size : 499 MiB (12%)
Language : Tamil
Service kind : Complete Main
Default : No
Forced : No

Audio #4
ID : 5
Format : E-AC-3
Format/Info : Enhanced AC-3
Commercial name : Dolby Digital Plus
Codec ID : A_EAC3
Duration : 1 h 48 min
Bit rate mode : Constant
Bit rate : 640 kb/s
Channel(s) : 6 channels
Channel layout : L R C LFE Ls Rs
Sampling rate : 48.0 kHz
Frame rate : 31.250 FPS (1536 SPF)
Compression mode : Lossy
Stream size : 499 MiB (12%)
Language : Telugu
Service kind : Complete Main
Default : No
Forced : No

Text #1
ID : 6
Format : UTF-8
Codec ID : S_TEXT/UTF8
Codec ID/Info : UTF-8 Plain Text
Duration : 1 h 46 min
Bit rate : 87 b/s
Frame rate : 0.155 FPS
Count of elements : 994
Stream size : 68.4 KiB (0%)
Language : Arabic
Default : No
Forced : No

Text #2
ID : 7
Format : UTF-8
Codec ID : S_TEXT/UTF8
Codec ID/Info : UTF-8 Plain Text
Duration : 1 h 45 min
Bit rate : 40 b/s
Frame rate : 0.156 FPS
Count of elements : 992
Stream size : 31.3 KiB (0%)
Language : Basque
Default : No
Forced : No

Text #3
ID : 8
Format : UTF-8
Codec ID : S_TEXT/UTF8
Codec ID/Info : UTF-8 Plain Text
Duration : 1 h 45 min
Bit rate : 41 b/s
Frame rate : 0.156 FPS
Count of elements : 989
Stream size : 31.9 KiB (0%)
Language : Catalan
Default : No
Forced : No

Text #4
ID : 9
Format : UTF-8
Codec ID : S_TEXT/UTF8
Codec ID/Info : UTF-8 Plain Text
Duration : 1 h 45 min
Bit rate : 37 b/s
Frame rate : 0.156 FPS
Count of elements : 991
Stream size : 29.3 KiB (0%)
Language : Croatian
Default : No
Forced : No

Text #5
ID : 10
Format : UTF-8
Codec ID : S_TEXT/UTF8
Codec ID/Info : UTF-8 Plain Text
Duration : 1 h 39 min
Bit rate : 39 b/s
Frame rate : 0.130 FPS
Count of elements : 772
Stream size : 28.7 KiB (0%)
Language : Czech
Default : No
Forced : No

Text #6
ID : 11
Format : UTF-8
Codec ID : S_TEXT/UTF8
Codec ID/Info : UTF-8 Plain Text
Duration : 43 min 59 s
Bit rate : 1 b/s
Frame rate : 0.003 FPS
Count of elements : 8
Stream size : 394 Bytes (0%)
Title : [Forced]
Language : Czech
Default : No
Forced : Yes

Text #7
ID : 12
Format : UTF-8
Codec ID : S_TEXT/UTF8
Codec ID/Info : UTF-8 Plain Text
Duration : 1 h 45 min
Bit rate : 39 b/s
Frame rate : 0.151 FPS
Count of elements : 958
Stream size : 30.7 KiB (0%)
Language : Danish
Default : No
Forced : No

Text #8
ID : 13
Format : UTF-8
Codec ID : S_TEXT/UTF8
Codec ID/Info : UTF-8 Plain Text
Duration : 1 h 45 min
Bit rate : 34 b/s
Frame rate : 0.135 FPS
Count of elements : 861
Stream size : 26.6 KiB (0%)
Language : Dutch
Default : No
Forced : No

Text #9
ID : 14
Format : UTF-8
Codec ID : S_TEXT/UTF8
Codec ID/Info : UTF-8 Plain Text
Duration : 28 s 375 ms
Bit rate : 107 b/s
Frame rate : 0.176 FPS
Count of elements : 5
Stream size : 381 Bytes (0%)
Title : [Forced]
Language : English
Default : Yes
Forced : Yes

Text #10
ID : 15
Format : UTF-8
Codec ID : S_TEXT/UTF8
Codec ID/Info : UTF-8 Plain Text
Duration : 1 h 45 min
Bit rate : 37 b/s
Frame rate : 0.154 FPS
Count of elements : 982
Stream size : 29.4 KiB (0%)
Language : Finnish
Default : No
Forced : No

Text #11
ID : 16
Format : UTF-8
Codec ID : S_TEXT/UTF8
Codec ID/Info : UTF-8 Plain Text
Duration : 1 h 45 min
Bit rate : 39 b/s
Frame rate : 0.156 FPS
Count of elements : 989
Stream size : 30.5 KiB (0%)
Title : Israel
Language : Finnish
Default : No
Forced : No

Text #12
ID : 17
Format : UTF-8
Codec ID : S_TEXT/UTF8
Codec ID/Info : UTF-8 Plain Text
Duration : 54 min 59 s
Bit rate : 1 b/s
Frame rate : 0.002 FPS
Count of elements : 8
Stream size : 461 Bytes (0%)
Title : Israel [Forced]
Language : Finnish
Default : No
Forced : Yes

Text #13
ID : 18
Format : UTF-8
Codec ID : S_TEXT/UTF8
Codec ID/Info : UTF-8 Plain Text
Duration : 1 h 45 min
Bit rate : 41 b/s
Frame rate : 0.163 FPS
Count of elements : 1038
Stream size : 32.4 KiB (0%)
Language : French
Default : No
Forced : No

Text #14
ID : 19
Format : UTF-8
Codec ID : S_TEXT/UTF8
Codec ID/Info : UTF-8 Plain Text
Duration : 41 min 54 s
Bit rate : 1 b/s
Frame rate : 0.004 FPS
Count of elements : 11
Stream size : 587 Bytes (0%)
Title : [Forced]
Language : French
Default : No
Forced : Yes

Text #15
ID : 20
Format : UTF-8
Codec ID : S_TEXT/UTF8
Codec ID/Info : UTF-8 Plain Text
Duration : 1 h 45 min
Bit rate : 40 b/s
Frame rate : 0.156 FPS
Count of elements : 992
Stream size : 31.6 KiB (0%)
Language : Galician
Default : No
Forced : No

Text #16
ID : 21
Format : UTF-8
Codec ID : S_TEXT/UTF8
Codec ID/Info : UTF-8 Plain Text
Duration : 1 h 46 min
Bit rate : 40 b/s
Frame rate : 0.147 FPS
Count of elements : 944
Stream size : 31.6 KiB (0%)
Language : German
Default : No
Forced : No

Text #17
ID : 22
Format : UTF-8
Codec ID : S_TEXT/UTF8
Codec ID/Info : UTF-8 Plain Text
Duration : 1 h 39 min
Bit rate : 0 b/s
Frame rate : 0.002 FPS
Count of elements : 13
Stream size : 738 Bytes (0%)
Title : [Forced]
Language : German
Default : No
Forced : Yes

Text #18
ID : 23
Format : UTF-8
Codec ID : S_TEXT/UTF8
Codec ID/Info : UTF-8 Plain Text
Duration : 1 h 45 min
Bit rate : 68 b/s
Frame rate : 0.155 FPS
Count of elements : 986
Stream size : 53.1 KiB (0%)
Language : Greek
Default : No
Forced : No

Text #19
ID : 24
Format : UTF-8
Codec ID : S_TEXT/UTF8
Codec ID/Info : UTF-8 Plain Text
Duration : 1 h 46 min
Bit rate : 61 b/s
Frame rate : 0.155 FPS
Count of elements : 991
Stream size : 47.8 KiB (0%)
Language : Hebrew
Default : No
Forced : No

Text #20
ID : 25
Format : UTF-8
Codec ID : S_TEXT/UTF8
Codec ID/Info : UTF-8 Plain Text
Duration : 42 min 1 s
Bit rate : 1 b/s
Frame rate : 0.003 FPS
Count of elements : 7
Stream size : 386 Bytes (0%)
Title : [Forced]
Language : Hindi
Default : No
Forced : Yes

Text #21
ID : 26
Format : UTF-8
Codec ID : S_TEXT/UTF8
Codec ID/Info : UTF-8 Plain Text
Duration : 1 h 46 min
Bit rate : 39 b/s
Frame rate : 0.153 FPS
Count of elements : 978
Stream size : 30.5 KiB (0%)
Language : Hungarian
Default : No
Forced : No

Text #22
ID : 27
Format : UTF-8
Codec ID : S_TEXT/UTF8
Codec ID/Info : UTF-8 Plain Text
Duration : 1 h 39 min
Bit rate : 0 b/s
Frame rate : 0.002 FPS
Count of elements : 12
Stream size : 531 Bytes (0%)
Title : [Forced]
Language : Hungarian
Default : No
Forced : Yes

Text #23
ID : 28
Format : UTF-8
Codec ID : S_TEXT/UTF8
Codec ID/Info : UTF-8 Plain Text
Duration : 1 h 45 min
Bit rate : 40 b/s
Frame rate : 0.156 FPS
Count of elements : 989
Stream size : 31.3 KiB (0%)
Language : Indonesian
Default : No
Forced : No

Text #24
ID : 29
Format : UTF-8
Codec ID : S_TEXT/UTF8
Codec ID/Info : UTF-8 Plain Text
Duration : 42 min 1 s
Bit rate : 1 b/s
Frame rate : 0.003 FPS
Count of elements : 7
Stream size : 395 Bytes (0%)
Title : [Forced]
Language : Indonesian
Default : No
Forced : Yes

Text #25
ID : 30
Format : UTF-8
Codec ID : S_TEXT/UTF8
Codec ID/Info : UTF-8 Plain Text
Duration : 1 h 45 min
Bit rate : 39 b/s
Frame rate : 0.163 FPS
Count of elements : 1038
Stream size : 30.6 KiB (0%)
Language : Italian
Default : No
Forced : No

Text #26
ID : 31
Format : UTF-8
Codec ID : S_TEXT/UTF8
Codec ID/Info : UTF-8 Plain Text
Duration : 42 min 2 s
Bit rate : 1 b/s
Frame rate : 0.004 FPS
Count of elements : 11
Stream size : 519 Bytes (0%)
Title : [Forced]
Language : Italian
Default : No
Forced : Yes

Text #27
ID : 32
Format : UTF-8
Codec ID : S_TEXT/UTF8
Codec ID/Info : UTF-8 Plain Text
Duration : 1 h 46 min
Bit rate : 34 b/s
Frame rate : 0.152 FPS
Count of elements : 976
Stream size : 27.2 KiB (0%)
Language : Japanese
Default : No
Forced : No

Text #28
ID : 33
Format : UTF-8
Codec ID : S_TEXT/UTF8
Codec ID/Info : UTF-8 Plain Text
Duration : 1 h 39 min
Bit rate : 0 b/s
Frame rate : 0.002 FPS
Count of elements : 11
Stream size : 456 Bytes (0%)
Title : [Forced]
Language : Japanese
Default : No
Forced : Yes

Text #29
ID : 34
Format : UTF-8
Codec ID : S_TEXT/UTF8
Codec ID/Info : UTF-8 Plain Text
Duration : 1 h 39 min
Bit rate : 60 b/s
Frame rate : 0.166 FPS
Count of elements : 992
Stream size : 44.0 KiB (0%)
Language : Korean
Default : No
Forced : No

Text #30
ID : 35
Format : UTF-8
Codec ID : S_TEXT/UTF8
Codec ID/Info : UTF-8 Plain Text
Duration : 1 h 45 min
Bit rate : 39 b/s
Frame rate : 0.156 FPS
Count of elements : 989
Stream size : 30.5 KiB (0%)
Language : Malay
Default : No
Forced : No

Text #31
ID : 36
Format : UTF-8
Codec ID : S_TEXT/UTF8
Codec ID/Info : UTF-8 Plain Text
Duration : 1 h 45 min
Bit rate : 39 b/s
Frame rate : 0.150 FPS
Count of elements : 952
Stream size : 30.7 KiB (0%)
Language : Norwegian Bokmal
Default : No
Forced : No

Text #32
ID : 37
Format : UTF-8
Codec ID : S_TEXT/UTF8
Codec ID/Info : UTF-8 Plain Text
Duration : 1 h 46 min
Bit rate : 38 b/s
Frame rate : 0.153 FPS
Count of elements : 977
Stream size : 30.3 KiB (0%)
Language : Polish
Default : No
Forced : No

Text #33
ID : 38
Format : UTF-8
Codec ID : S_TEXT/UTF8
Codec ID/Info : UTF-8 Plain Text
Duration : 1 h 39 min
Bit rate : 0 b/s
Frame rate : 0.002 FPS
Count of elements : 9
Stream size : 324 Bytes (0%)
Title : [Forced]
Language : Polish
Default : No
Forced : Yes

Text #34
ID : 39
Format : UTF-8
Codec ID : S_TEXT/UTF8
Codec ID/Info : UTF-8 Plain Text
Duration : 1 h 46 min
Bit rate : 39 b/s
Frame rate : 0.152 FPS
Count of elements : 976
Stream size : 31.2 KiB (0%)
Language : Portuguese
Default : No
Forced : No

Text #35
ID : 40
Format : UTF-8
Codec ID : S_TEXT/UTF8
Codec ID/Info : UTF-8 Plain Text
Duration : 1 h 46 min
Bit rate : 46 b/s
Frame rate : 0.155 FPS
Count of elements : 995
Stream size : 36.6 KiB (0%)
Title : Brazilian
Language : Portuguese
Default : No
Forced : No

Text #36
ID : 41
Format : UTF-8
Codec ID : S_TEXT/UTF8
Codec ID/Info : UTF-8 Plain Text
Duration : 42 min 1 s
Bit rate : 1 b/s
Frame rate : 0.005 FPS
Count of elements : 12
Stream size : 515 Bytes (0%)
Title : Brazilian [Forced]
Language : Portuguese
Default : No
Forced : Yes

Text #37
ID : 42
Format : UTF-8
Codec ID : S_TEXT/UTF8
Codec ID/Info : UTF-8 Plain Text
Duration : 1 h 46 min
Bit rate : 38 b/s
Frame rate : 0.152 FPS
Count of elements : 975
Stream size : 30.0 KiB (0%)
Language : Romanian
Default : No
Forced : No

Text #38
ID : 43
Format : UTF-8
Codec ID : S_TEXT/UTF8
Codec ID/Info : UTF-8 Plain Text
Duration : 1 h 46 min
Bit rate : 65 b/s
Frame rate : 0.154 FPS
Count of elements : 986
Stream size : 51.5 KiB (0%)
Language : Russian
Default : No
Forced : No

Text #39
ID : 44
Format : UTF-8
Codec ID : S_TEXT/UTF8
Codec ID/Info : UTF-8 Plain Text
Duration : 1 h 39 min
Bit rate : 44 b/s
Frame rate : 0.189 FPS
Count of elements : 1127
Stream size : 32.3 KiB (0%)
Language : Spanish
Default : No
Forced : No

Text #40
ID : 45
Format : UTF-8
Codec ID : S_TEXT/UTF8
Codec ID/Info : UTF-8 Plain Text
Duration : 1 h 39 min
Bit rate : 0 b/s
Frame rate : 0.002 FPS
Count of elements : 11
Stream size : 556 Bytes (0%)
Title : [Forced]
Language : Spanish
Default : No
Forced : Yes

Text #41
ID : 46
Format : UTF-8
Codec ID : S_TEXT/UTF8
Codec ID/Info : UTF-8 Plain Text
Duration : 1 h 46 min
Bit rate : 38 b/s
Frame rate : 0.155 FPS
Count of elements : 992
Stream size : 29.8 KiB (0%)
Language : Spanish
Default : No
Forced : No

Text #42
ID : 47
Format : UTF-8
Codec ID : S_TEXT/UTF8
Codec ID/Info : UTF-8 Plain Text
Duration : 1 h 39 min
Bit rate : 0 b/s
Frame rate : 0.002 FPS
Count of elements : 11
Stream size : 546 Bytes (0%)
Title : [Forced]
Language : Spanish
Default : No
Forced : Yes

Text #43
ID : 48
Format : UTF-8
Codec ID : S_TEXT/UTF8
Codec ID/Info : UTF-8 Plain Text
Duration : 1 h 45 min
Bit rate : 39 b/s
Frame rate : 0.146 FPS
Count of elements : 925
Stream size : 30.8 KiB (0%)
Language : Swedish
Default : No
Forced : No

Text #44
ID : 49
Format : UTF-8
Codec ID : S_TEXT/UTF8
Codec ID/Info : UTF-8 Plain Text
Duration : 1 h 39 min
Bit rate : 2 b/s
Frame rate : 0.002 FPS
Count of elements : 14
Stream size : 1.52 KiB (0%)
Title : [Forced]
Language : Tamil
Default : No
Forced : Yes

Text #45
ID : 50
Format : UTF-8
Codec ID : S_TEXT/UTF8
Codec ID/Info : UTF-8 Plain Text
Duration : 1 h 39 min
Bit rate : 2 b/s
Frame rate : 0.004 FPS
Count of elements : 21
Stream size : 1.86 KiB (0%)
Title : [Forced]
Language : Telugu
Default : No
Forced : Yes

Text #46
ID : 51
Format : UTF-8
Codec ID : S_TEXT/UTF8
Codec ID/Info : UTF-8 Plain Text
Duration : 1 h 46 min
Bit rate : 91 b/s
Frame rate : 0.154 FPS
Count of elements : 985
Stream size : 71.7 KiB (0%)
Language : Thai
Default : No
Forced : No

Text #47
ID : 52
Format : UTF-8
Codec ID : S_TEXT/UTF8
Codec ID/Info : UTF-8 Plain Text
Duration : 1 h 39 min
Bit rate : 1 b/s
Frame rate : 0.003 FPS
Count of elements : 15
Stream size : 1.27 KiB (0%)
Title : [Forced]
Language : Thai
Default : No
Forced : Yes

Text #48
ID : 53
Format : UTF-8
Codec ID : S_TEXT/UTF8
Codec ID/Info : UTF-8 Plain Text
Duration : 1 h 46 min
Bit rate : 40 b/s
Frame rate : 0.148 FPS
Count of elements : 948
Stream size : 31.8 KiB (0%)
Language : Turkish
Default : No
Forced : No

Text #49
ID : 54
Format : UTF-8
Codec ID : S_TEXT/UTF8
Codec ID/Info : UTF-8 Plain Text
Duration : 40 min 18 s
Bit rate : 1 b/s
Frame rate : 0.003 FPS
Count of elements : 8
Stream size : 433 Bytes (0%)
Title : [Forced]
Language : Turkish
Default : No
Forced : Yes

Text #50
ID : 55
Format : UTF-8
Codec ID : S_TEXT/UTF8
Codec ID/Info : UTF-8 Plain Text
Duration : 1 h 46 min
Bit rate : 65 b/s
Frame rate : 0.155 FPS
Count of elements : 992
Stream size : 50.9 KiB (0%)
Language : Ukrainian
Default : No
Forced : No

Text #51
ID : 56
Format : UTF-8
Codec ID : S_TEXT/UTF8
Codec ID/Info : UTF-8 Plain Text
Duration : 1 h 39 min
Bit rate : 0 b/s
Frame rate : 0.002 FPS
Count of elements : 14
Stream size : 740 Bytes (0%)
Title : [Forced]
Language : Ukrainian
Default : No
Forced : Yes

Text #52
ID : 57
Format : UTF-8
Codec ID : S_TEXT/UTF8
Codec ID/Info : UTF-8 Plain Text
Duration : 1 h 45 min
Bit rate : 50 b/s
Frame rate : 0.156 FPS
Count of elements : 990
Stream size : 39.4 KiB (0%)
Language : Vietnamese
Default : No
Forced : No

Text #53
ID : 58
Format : UTF-8
Codec ID : S_TEXT/UTF8
Codec ID/Info : UTF-8 Plain Text
Duration : 1 h 46 min
Bit rate : 35 b/s
Frame rate : 0.156 FPS
Count of elements : 1001
Stream size : 27.5 KiB (0%)
Title : [Simplified]
Language : Chinese
Default : No
Forced : No

Text #54
ID : 59
Format : UTF-8
Codec ID : S_TEXT/UTF8
Codec ID/Info : UTF-8 Plain Text
Duration : 1 h 46 min
Bit rate : 32 b/s
Frame rate : 0.156 FPS
Count of elements : 996
Stream size : 25.3 KiB (0%)
Title : [Traditional]
Language : Chinese
Default : No
Forced : No

Menu
00:00:00.000 : en:Part 01
01:39:56.000 : en:Credits

 

More Images

Read More