Ora 7 Jon 2024 Bengali 1080p Toffee WEB-DL AAC2.0.H.264

Ora 7 Jon 2024 Bengali 1080p Toffee WEB-DL AAC2.0.H.264
Name: Ora 7 Jon 2024 Bengali 1080p Toffee WEB-DL AAC2.0.H.264
Type: HD
Language: Bengali/Bangla
Size: 3.3 GB
Categories: Movies
Download:

 

==============================================================
Ora 7 Jon 2024 Bengali 1080p Toffee WEB-DL AAC2.0.H.264
==============================================================
IMDB | MOVIE TRAILER
==============================================================
Video: AVC | 1920×1080 25fps | 2610 kb/s
Audio: Bengali | AAC LC SBR | 192 kb/s | HE-AAC2.0 | 2 channels
Size: 3.30 GiB | Duration: 2h 48min
==============================================================
Posted by: xCLuMsYx | Date: 06/03/2024
==============================================================

 

 

More Poster’s

 

General
Unique ID : 235646076810046694489683684364900323548 (0xB147C8976D2C3C04BE62F6C2FE2350DC)
Complete name : Ora.7.Jon.2024.Bengali.1080p.Toffee.WEB-DL.AAC2.0.H.264-TheBiscuitMan.mkv
Format : Matroska
Format version : Version 4
File size : 3.30 GiB
Duration : 2 h 48 min
Overall bit rate : 2 803 kb/s
Frame rate : 25.000 FPS
Writing application : mkvmerge v82.0 (‘I’m The President’) 64-bit
Writing library : libebml v1.4.5 + libmatroska v1.7.1
Video
ID : 1
Format : AVC
Format/Info : Advanced Video Codec
Format profile : High@L4
Format settings : CABAC / 4 Ref Frames
Format settings, CABAC : Yes
Format settings, Reference frames : 4 frames
Codec ID : V_MPEG4/ISO/AVC
Duration : 2 h 48 min
Bit rate : 2 610 kb/s
Nominal bit rate : 4 096 kb/s
Width : 1 920 pixels
Height : 1 080 pixels
Display aspect ratio : 16:9
Frame rate mode : Constant
Frame rate : 25.000 FPS
Color space : YUV
Chroma subsampling : 4:2:0
Bit depth : 8 bits
Scan type : Progressive
Bits/(Pixel*Frame) : 0.050
Stream size : 3.07 GiB (93%)
Title : s
Writing library : x264 core 155 r2917 0a84d98
Encoding settings : cabac=1 / ref=3 / deblock=1:0:0 / analyse=0x3:0x113 / me=hex / subme=7 / psy=1 / psy_rd=1.00:0.00 / mixed_ref=1 / me_range=16 / chroma_me=1 / trellis=1 / 8x8dct=1 / cqm=0 / deadzone=21,11 / fast_pskip=1 / chroma_qp_offset=-2 / threads=96 / lookahead_threads=8 / sliced_threads=0 / nr=0 / decimate=1 / interlaced=0 / bluray_compat=0 / constrained_intra=0 / bframes=3 / b_pyramid=2 / b_adapt=1 / b_bias=0 / direct=1 / weightb=1 / open_gop=0 / weightp=2 / keyint=300 / keyint_min=25 / scenecut=40 / intra_refresh=0 / rc_lookahead=40 / rc=cbr / mbtree=1 / bitrate=4096 / ratetol=1.0 / qcomp=0.60 / qpmin=0 / qpmax=69 / qpstep=4 / vbv_maxrate=4096 / vbv_bufsize=4096 / nal_hrd=none / filler=0 / ip_ratio=1.40 / aq=1:1.00
Default : Yes
Forced : No

Audio
ID : 2
Format : AAC LC SBR
Format/Info : Advanced Audio Codec Low Complexity with Spectral Band Replication
Commercial name : HE-AAC
Format settings : Explicit
Codec ID : A_AAC-2
Duration : 2 h 48 min
Bit rate : 192 kb/s
Channel(s) : 2 channels
Channel layout : L R
Sampling rate : 44.1 kHz
Frame rate : 21.533 FPS (2048 SPF)
Compression mode : Lossy
Stream size : 231 MiB (7%)
Language : Bengali
Default : Yes
Forced : No

 

More Images

Read More