Langitngit (2023) Explicit 1080p WEBRip Esub x264 AAC – QRips.

Langitngit (2023) Explicit 1080p WEBRip Esub x264 AAC – QRips.
Name: Langitngit (2023) Explicit 1080p WEBRip Esub x264 AAC - QRips.
Type: h.264/x264
Language: Thai
Size: 2.6 GB
Categories: Movies
Download:

Langitngit (2023) Explicit 1080p WEBRip Esub x264 AAC – QRips

Video
ID : 1
Format : AVC
Format/Info : Advanced Video Codec
Format profile : Main@L4
Format settings : CABAC / 4 Ref Frames
Format settings, CABAC : Yes
Format settings, Reference frames : 4 frames
Codec ID : V_MPEG4/ISO/AVC
Duration : 1 h 53 min
Bit rate : 3 136 kb/s
Width : 1 920 pixels
Height : 1 080 pixels
Display aspect ratio : 16:9
Frame rate mode : Constant
Frame rate : 30.000 FPS
Color space : YUV
Chroma subsampling : 4:2:0
Bit depth : 8 bits
Scan type : Progressive
Bits/(Pixel*Frame) : 0.050
Stream size : 2.48 GiB (97%)
Default : Yes
Forced : No

Audio
ID : 2
Format : AAC LC
Format/Info : Advanced Audio Codec Low Complexity
Codec ID : A_AAC-2
Duration : 1 h 53 min
Bit rate : 96.0 kb/s
Channel(s) : 2 channels
Channel layout : L R
Sampling rate : 48.0 kHz
Frame rate : 46.875 FPS (1024 SPF)
Compression mode : Lossy
Stream size : 78.0 MiB (3%)
Language : Tagalog
Default : Yes
Forced : No

Text
ID : 3
Format : UTF-8
Codec ID : S_TEXT/UTF8
Codec ID/Info : UTF-8 Plain Text
Duration : 1 h 45 min
Bit rate : 33 b/s
Count of elements : 932
Stream size : 26.0 KiB (0%)
Language : English
Default : Yes
Forced : Yes

More Images

Read More