Kacher Manush Dure Thuiya 2024 Bengali 1080p HQ.CRKI WEB-DL AAC2.0.H.264

Kacher Manush Dure Thuiya 2024 Bengali 1080p HQ.CRKI WEB-DL AAC2.0.H.264
Name: Kacher Manush Dure Thuiya 2024 Bengali 1080p HQ.CRKI WEB-DL AAC2.0.H.264
Type: HD
Language: Bengali/Bangla
Size: 15.3 GB
Categories: Movies
Download:

 

==============================================================

 

==============================================================
Kacher Manush Dure Thuiya 2024 Bengali 1080p HQ.CRKI WEB-DL AAC2.0.H.264
==============================================================
IMDB | TMDB | MOVIE TRAILER
==============================================================
Video: AVC | 1920×1080 25fps | 14.9 Mb/s
Audio: Bengali | AAC LC SBR | 288 kb/s | HE-AAC2.0 | 2 channels
Subtitle: English
Size: 15.3 GiB | Duration: 2h 24min
==============================================================
Posted by: xCLuMsYx | Date: 06/03/2024
==============================================================

 

 

More Poster’s

 

General
Unique ID : 311546079721915269270311802437418176608 (0xEA6197A77AD4442E45F77CFD47015060)
Complete name : Kacher.Manush.Dure.Thuiya.2024.Bengali.1080p.HQ.CRKI.WEB-DL.AAC2.0.H.264-TheBiscuitMan.mkv
Format : Matroska
Format version : Version 4
File size : 15.3 GiB
Duration : 2 h 24 min
Overall bit rate mode : Variable
Overall bit rate : 15.2 Mb/s
Frame rate : 25.000 FPS
Writing application : mkvmerge v82.0 (‘I’m The President’) 64-bit
Writing library : libebml v1.4.5 + libmatroska v1.7.1

Video
ID : 1
Format : AVC
Format/Info : Advanced Video Codec
Format profile : [email protected]
Format settings : CABAC / 2 Ref Frames
Format settings, CABAC : Yes
Format settings, Reference frames : 2 frames
Format settings, GOP : M=1, N=50
Codec ID : V_MPEG4/ISO/AVC
Duration : 2 h 24 min
Bit rate mode : Variable
Bit rate : 14.9 Mb/s
Maximum bit rate : 768 kb/s
Width : 1 920 pixels
Height : 1 080 pixels
Display aspect ratio : 16:9
Frame rate mode : Constant
Frame rate : 25.000 FPS
Color space : YUV
Chroma subsampling : 4:2:0
Bit depth : 8 bits
Scan type : Progressive
Bits/(Pixel*Frame) : 0.287
Stream size : 15.0 GiB (98%)
Default : Yes
Forced : No
Color range : Limited
Color primaries : BT.709
Transfer characteristics : BT.709
Matrix coefficients : BT.709

Audio
ID : 2
Format : AAC LC SBR
Format/Info : Advanced Audio Codec Low Complexity with Spectral Band Replication
Commercial name : HE-AAC
Format settings : Explicit
Codec ID : A_AAC-2
Duration : 2 h 24 min
Bit rate : 288 kb/s
Channel(s) : 2 channels
Channel layout : L R
Sampling rate : 48.0 kHz
Frame rate : 23.438 FPS (2048 SPF)
Compression mode : Lossy
Stream size : 297 MiB (2%)
Language : Bengali
Default : Yes
Forced : No

Text
ID : 3
Format : UTF-8
Codec ID : S_TEXT/UTF8
Codec ID/Info : UTF-8 Plain Text
Duration : 2 h 20 min
Bit rate : 48 b/s
Frame rate : 0.190 FPS
Count of elements : 1609
Stream size : 49.6 KiB (0%)
Language : English
Default : Yes
Forced : No

 

More Images

Read More