Jailer (2023) UNCUT 720p 10bit WEBRip x265 HEVC

Jailer (2023) UNCUT 720p 10bit WEBRip x265 HEVC
Name: Jailer (2023) UNCUT 720p 10bit Einthusan WEBRip x265 HEVC [Line
Type: Dubs/Dual Audio
Language: Hindi
Size: 1.4 GB
Categories: Movies
Download:


Jailer (2023) UNCUT 720p 10bit Einthusan WEBRip x265 HEVC [Line Hindi DDP 2.0 ~192Kbps + Tamil DDP 2.0] ESub ~ Immortal

Code:

Video
ID : 1
Format : HEVC
Format/Info : High Efficiency Video Coding
Format profile : Main [email protected]@High
Codec ID : V_MPEGH/ISO/HEVC
Duration : 2 h 45 min
Bit rate : 964 kb/s
Width : 1 280 pixels
Height : 538 pixels
Display aspect ratio : 2.40:1
Frame rate mode : Constant
Frame rate : 24.000 FPS
Color space : YUV
Chroma subsampling : 4:2:0 (Type 0)
Bit depth : 10 bits
Bits/(Pixel*Frame) : 0.058
Stream size : 1.11 GiB (77%)
Title : Encoded By ~ Immortal
Language : Tamil
Default : Yes
Forced : Yes
Color range : Limited
Color primaries : BT.709
Transfer characteristics : BT.709
Matrix coefficients : BT.709

Audio #1
ID : 2
Format : E-AC-3
Format/Info : Enhanced AC-3
Commercial name : Dolby Digital Plus
Codec ID : A_EAC3
Duration : 2 h 45 min
Bit rate mode : Constant
Bit rate : 192 kb/s
Channel(s) : 2 channels
Channel layout : L R
Sampling rate : 48.0 kHz
Frame rate : 31.250 FPS (1536 SPF)
Compression mode : Lossy
Stream size : 227 MiB (15%)
Title : CAM Clean Line Hindi DDP 2.0 192Kbps ~ Immortal
Language : Hindi
Service kind : Complete Main
Default : Yes
Forced : Yes

Audio #2
ID : 3
Format : E-AC-3
Format/Info : Enhanced AC-3
Commercial name : Dolby Digital Plus
Codec ID : A_EAC3
Duration : 2 h 45 min
Bit rate mode : Constant
Bit rate : 96.0 kb/s
Channel(s) : 2 channels
Channel layout : L R
Sampling rate : 48.0 kHz
Frame rate : 31.250 FPS (1536 SPF)
Compression mode : Lossy
Stream size : 113 MiB (8%)
Title : Tamil DDP 2.0 ~ Immortal
Language : Tamil
Service kind : Complete Main
Default : No
Forced : No


















Quote:

🎞 Encoding Source :— Jailer (2023) HD AVC UNTOUCHED [Hindi (CAM) DDP2.0 + Tamil DD5.1 (512K)] x264 ~ RAjNi 💝
🔉 Audio Credit :— CAM Clean SYNCED Hindi Audio By ~ ARYA 💚

More Images

Read More