Hostel Daze 2023 S04 1080p AMZN WEB-DL DDP5.1 H265

Hostel Daze 2023 S04 1080p AMZN WEB-DL DDP5.1 H265
Name: Hostel Daze 2023 S04 1080p AMZN WEB-DL DDP5.1 H265
Type: HEVC/x265
Language: Hindi
Size: 1.7 GB
Categories: TV
Download:

Hostel Daze 2023 S04 1080p AMZN WEB-DL DDP5.1 H265

Video
ID : 1
Format : HEVC
Format/Info: High Efficiency Video Coding
Format profile : Main@L4@Main
Codec ID : V_MPEGH/ISO/HEVC
Duration : 32 min 59 s
Bit rate : 782 kb/s
Width: 1 920 pixels
Height : 960 pixels
Display aspect ratio : 2.000
Frame rate mode: Constant
Frame rate : 25.000 FPS
Standard : NTSC
Color space: YUV
Chroma subsampling : 4:2:0
Bit depth: 8 bits
Bits/(Pixel*Frame) : 0.017
Stream size: 184 MiB (80%)
Default: Yes
Forced : No
Color range: Limited
Color primaries: BT.709
Transfer characteristics : BT.709
Matrix coefficients: BT.709

Audio
ID : 2
Format : E-AC-3
Format/Info: Enhanced AC-3
Commercial name: Dolby Digital Plus
Codec ID : A_EAC3
Duration : 32 min 59 s
Bit rate mode: Constant
Bit rate : 192 kb/s
Channel(s) : 6 channels
Channel layout : L R C LFE Ls Rs
Sampling rate: 48.0 kHz
Frame rate : 31.250 FPS (1536 SPF)
Compression mode : Lossy
Stream size: 45.3 MiB (20%)
Language : Hindi
Service kind : Complete Main
Default: Yes
Forced : No

Text
ID : 3
Format : UTF-8
Codec ID : S_TEXT/UTF8
Codec ID/Info: UTF-8 Plain Text
Duration : 31 min 14 s
Bit rate : 76 b/s
Count of elements: 444
Stream size: 17.6 KiB (0%)
Language : English
Default: No
Forced : No

 

 

 

 

 

 

 

Please Seed After Downloading

 

More Images

Read More