Graphic Desires (2022) Explicit 1080p BluRay x265 ESub

Graphic Desires (2022) Explicit 1080p BluRay x265 ESub
Name: Graphic Desires (2022) Explicit 1080p BluRay x265 ESub
Type: h.264/x264
Language: English
Size: 1.4 GB
Categories: Movies
Download:

Graphic Desires (2022) Explicit 1080p BluRay x265 ESub

Format : Matroska
Format version : Version 4
File size : 1.41 GiB
Duration : 1 h 30 min
Overall bit rate : 2 226 kb/s
Encoded date : UTC 2023-06-02 12:50:27
Writing application : mkvmerge v52.0.0 (‘Secret For The Mad’) 64-bit
Writing library : libebml v1.4.1 + libmatroska v1.6.2

Video
ID : 1
Format : HEVC
Format/Info : High Efficiency Video Coding
Format profile : Main 10@L4@Main
Codec ID : V_MPEGH/ISO/HEVC
Duration : 1 h 30 min
Bit rate : 1 999 kb/s
Width : 1 920 pixels
Height : 800 pixels
Display aspect ratio : 2.40:1
Frame rate mode : Constant
Frame rate : 23.976 (24000/1001) FPS
Color space : YUV
Chroma subsampling : 4:2:0
Bit depth : 10 bits
Bits/(Pixel*Frame) : 0.054
Stream size : 1.26 GiB (90%)

Audio
ID : 2
Format : AAC LC
Format/Info : Advanced Audio Codec Low Complexity
Codec ID : A_AAC-2
Duration : 1 h 30 min
Bit rate : 224 kb/s
Channel(s) : 6 channels
Channel layout : C L R Ls Rs LFE
Sampling rate : 48.0 kHz
Frame rate : 46.875 FPS (1024 SPF)
Compression mode : Lossy
Delay relative to video : -43 ms
Stream size : 145 MiB (10%)
Language : English
Default : Yes
Forced : No

Text
ID : 3
Format : UTF-8
Codec ID : S_TEXT/UTF8
Codec ID/Info : UTF-8 Plain Text
Duration : 1 h 27 min
Bit rate : 45 b/s
Count of elements : 889
Stream size : 28.8 KiB (0%)
Default : Yes
Forced : Yes

More Images

Read More