Charlie Chopra and The Mystery of Solang Valley 2023 S01E01 The Legend of Lady Rose 720p WEB-DL H.264

Charlie Chopra and The Mystery of Solang Valley 2023 S01E01 The Legend of Lady Rose 720p WEB-DL  H.264
Name: Charlie Chopra and The Mystery of Solang Valley 2023 S01E01 The Legend of Lady Rose 720p WEB-DL H.264
Type: HD
Language: Hindi
Size: 4.7 GB
Categories: TV
Download:

 

==============================================================
Charlie Chopra and The Mystery of Solang Valley 2023 S01E01 The Legend of Lady Rose 720p WEB-DL H.264
==============================================================
IMDB | TMDB | TvDB | SEASON TRAILER
==============================================================
Video: AVC | 1280×720 25fps | 728 kb/s
Audio 1: Hindi | E-AC-3 JOC | Enhanced AC-3 with Dolby Atmos | 448 kb/s | DD+5.1 | 6 channels
Audio 2: Tamil | E-AC-3 | Enhanced AC-3 | 256 kb/s | DD+5.1 | 6 channels
Audio 3: Telugu | E-AC-3 | Enhanced AC-3 | 256 kb/s | DD+5.1 | 6 channels
Audio 4: Malayalam | E-AC-3 | Enhanced AC-3 | 256 kb/s | DD+5.1 | 6 channels
Audio 5: Kannada | E-AC-3 | Enhanced AC-3 | 256 kb/s | DD+5.1 | 6 channels
Audio 6: Bengali | E-AC-3 | Enhanced AC-3 | 256 kb/s | DD+5.1 | 6 channels
Audio 7: Marathi | E-AC-3 | Enhanced AC-3 | 256 kb/s | DD+5.1 | 6 channels
Subtitle: English
Size: 840 MiB | Duration: 43min 14s
==============================================================
Posted by: xCLuMsYx | Date: 27/09/2023
==============================================================

 

 

General
Unique ID : 213054560465297550462746328763160764111 (0xA048D0D6E1C4E6977852388BE1129ECF)
Complete name : Charlie.Chopra.and.The.Mystery.of.Solang.Valley.2023.S01E01.The.Legend.of.Lady.Rose.720p.SonyLIV.WEB-DL.MULTi.DD+5.1.Atmos.H.264-TheBiscuitMan.mkv
Format : Matroska
Format version : Version 4
File size : 840 MiB
Duration : 43 min 14 s
Overall bit rate mode : Variable
Overall bit rate : 2 715 kb/s
Frame rate : 25.000 FPS
Writing application : mkvmerge v79.0 (‘Funeral Pyres’) 64-bit
Writing library : libebml v1.4.4 + libmatroska v1.7.1

Video
ID : 1
Format : AVC
Format/Info : Advanced Video Codec
Format profile : [email protected]
Format settings : CABAC / 4 Ref Frames
Format settings, CABAC : Yes
Format settings, Reference frames : 4 frames
Codec ID : V_MPEG4/ISO/AVC
Duration : 43 min 14 s
Bit rate mode : Variable
Bit rate : 728 kb/s
Maximum bit rate : 1 800 kb/s
Width : 1 280 pixels
Height : 720 pixels
Display aspect ratio : 16:9
Frame rate mode : Constant
Frame rate : 25.000 FPS
Color space : YUV
Chroma subsampling : 4:2:0
Bit depth : 8 bits
Scan type : Progressive
Bits/(Pixel*Frame) : 0.032
Stream size : 225 MiB (27%)
Default : Yes
Forced : No
Color range : Limited
Color primaries : BT.709
Matrix coefficients : BT.709

Audio #1
ID : 2
Format : E-AC-3 JOC
Format/Info : Enhanced AC-3 with Joint Object Coding
Commercial name : Dolby Digital Plus with Dolby Atmos
Codec ID : A_EAC3
Duration : 43 min 14 s
Bit rate mode : Constant
Bit rate : 448 kb/s
Channel(s) : 6 channels
Channel layout : L R C LFE Ls Rs
Sampling rate : 48.0 kHz
Frame rate : 31.250 FPS (1536 SPF)
Compression mode : Lossy
Stream size : 139 MiB (16%)
Language : Hindi
Service kind : Complete Main
Default : Yes
Forced : No
Complexity index : 16
Number of dynamic objects : 15
Bed channel count : 1 channel
Bed channel configuration : LFE

Audio #2
ID : 3
Format : E-AC-3
Format/Info : Enhanced AC-3
Commercial name : Dolby Digital Plus
Codec ID : A_EAC3
Duration : 43 min 14 s
Bit rate mode : Constant
Bit rate : 256 kb/s
Channel(s) : 6 channels
Channel layout : L R C LFE Ls Rs
Sampling rate : 48.0 kHz
Frame rate : 31.250 FPS (1536 SPF)
Compression mode : Lossy
Stream size : 79.2 MiB (9%)
Language : Tamil
Service kind : Complete Main
Default : No
Forced : No

Audio #3
ID : 4
Format : E-AC-3
Format/Info : Enhanced AC-3
Commercial name : Dolby Digital Plus
Codec ID : A_EAC3
Duration : 43 min 14 s
Bit rate mode : Constant
Bit rate : 256 kb/s
Channel(s) : 6 channels
Channel layout : L R C LFE Ls Rs
Sampling rate : 48.0 kHz
Frame rate : 31.250 FPS (1536 SPF)
Compression mode : Lossy
Stream size : 79.2 MiB (9%)
Language : Telugu
Service kind : Complete Main
Default : No
Forced : No

Audio #4
ID : 5
Format : E-AC-3
Format/Info : Enhanced AC-3
Commercial name : Dolby Digital Plus
Codec ID : A_EAC3
Duration : 43 min 14 s
Bit rate mode : Constant
Bit rate : 256 kb/s
Channel(s) : 6 channels
Channel layout : L R C LFE Ls Rs
Sampling rate : 48.0 kHz
Frame rate : 31.250 FPS (1536 SPF)
Compression mode : Lossy
Stream size : 79.2 MiB (9%)
Language : Malayalam
Service kind : Complete Main
Default : No
Forced : No

Audio #5
ID : 6
Format : E-AC-3
Format/Info : Enhanced AC-3
Commercial name : Dolby Digital Plus
Codec ID : A_EAC3
Duration : 43 min 14 s
Bit rate mode : Constant
Bit rate : 256 kb/s
Channel(s) : 6 channels
Channel layout : L R C LFE Ls Rs
Sampling rate : 48.0 kHz
Frame rate : 31.250 FPS (1536 SPF)
Compression mode : Lossy
Stream size : 79.2 MiB (9%)
Language : Kannada
Service kind : Complete Main
Default : No
Forced : No

Audio #6
ID : 7
Format : E-AC-3
Format/Info : Enhanced AC-3
Commercial name : Dolby Digital Plus
Codec ID : A_EAC3
Duration : 43 min 14 s
Bit rate mode : Constant
Bit rate : 256 kb/s
Channel(s) : 6 channels
Channel layout : L R C LFE Ls Rs
Sampling rate : 48.0 kHz
Frame rate : 31.250 FPS (1536 SPF)
Compression mode : Lossy
Stream size : 79.2 MiB (9%)
Language : Bengali
Service kind : Complete Main
Default : No
Forced : No

Audio #7
ID : 8
Format : E-AC-3
Format/Info : Enhanced AC-3
Commercial name : Dolby Digital Plus
Codec ID : A_EAC3
Duration : 43 min 14 s
Bit rate mode : Constant
Bit rate : 256 kb/s
Channel(s) : 6 channels
Channel layout : L R C LFE Ls Rs
Sampling rate : 48.0 kHz
Frame rate : 31.250 FPS (1536 SPF)
Compression mode : Lossy
Stream size : 79.2 MiB (9%)
Language : Marathi
Service kind : Complete Main
Default : No
Forced : No

Text
ID : 9
Format : UTF-8
Codec ID : S_TEXT/UTF8
Codec ID/Info : UTF-8 Plain Text
Duration : 38 min 10 s
Bit rate : 50 b/s
Frame rate : 0.260 FPS
Count of elements : 596
Stream size : 14.0 KiB (0%)
Language : English
Default : Yes
Forced : No

 

More Images

Read More